Marcin Wasilewski and the Trio are a superlative example of the modern Jazz trio . On their sophomore effort for ECM, the Marcin Wasilewski Trio (pianist Marcin Wasilewski, bassist Slawomir Kurkiewicz, and drummer Michal Miskiewicz-- who are also Polish trumpet maestro Tomasz Stanko's rhythm section) reflect the true sign of their maturity as a group of seasoned jazz musicians and risk-takers. Albums include January, Faithful, and Trio. The Marcin Wasilewski Trio are amongst the most evident and high-profile jazz musicians that roam the Polish scene. Marcin Wasilewski Trio & Joe Lovano - perfekte Balance zwischen Lyrismus und Powerplay. Night Train to You 5. Career Early career. The first-time teaming of Poland’s dynamic Marcin Wasilewski Trio and big-toned US tenorist Joe Lovano brings forth special music of concentrated, deep feeling, in which lyricism and strength seem ideally balanced. Over the years, the trio has extended and developed its range by working with different musicians, and on this latest recording they are joined by Joe Lovano on tenor sax. Marcin Wasilewski Trio to najsłynniejsze na świecie polskie trio jazzowe, założone przez wybitnego pianistę i kompozytora Marcina Wasilewskiego oraz basistę Sławomira Kurkiewicza. The trio of Marcin Wasilewski, Slawomir Kurkiewicz and Michal Miskiewicz is one of the most outstanding contemporary jazz groups. There is space here for both the outgoing and the reflective, for profound composition and in-the-moment creativity. Spark of Life / Sudovian Dance 2. Download our mobile app now. Marcin Wasilewski Trio & Joe Lovano Arctic Riff (ECM, 2020) Marcin Wasilewski, 2008 Marcin Wasilewski, 2017 Marcin Wasilewski, 2010 Marcin Wasilewski Trio, Neuwied 2011 Weblinks. Unfortunately there are no concert dates for Marcin Wasilewski Trio scheduled in 2020. Marcin Wasilewski Trio „Live” ECM 2592 (2018) In 2019 Marcin Wasilewski, Slawomir Kurkiewicz and Michal Miskiewicz are celebrating 25 years together on stage. This particular trio helped produce such masterpieces as "Soul Of Things" and "Suspended Night" with Stanko. Three Reflections 4. Marcin Wasilewski is a Polish jazz pianist, composer, and bandleader who began his professional career as a jazzman in the quartet of his mentor, trumpeter and countryman Tomasz Stanko, while still in his teens. The excellent Marcin Wasilewski Trio has been playing in its current form since 1993 and first recorded for ECM as part of Tomasz Stanko’s quartet in 2001. Listen on Apple Music. Vashkar. Dazzling third ECM album by Poland’s Wasilewski Trio, which perfectly captures the group’s blend of energy and lyricism. Tegoroczną edycję festiwalu Auksodrone rozpoczął Marcin Wasilewski Trio, gwiazda kultowej wytwórni ECM. Genres: ECM Style Jazz, Jazz, Latin Jazz. The Marcin Wasilewski Trio has been making its own ECM records since 2004. Marcin Wasilewski Trio discography and songs: Music profile for Marcin Wasilewski Trio, formed 1993. Their friend and mentor trumpeter Tomasz Stańko has said, “In the entire history of Polish jazz we've never had a band … Koledzy dzielnie mu sekundują, naprawdę dając jazzu. Webpräsenz; Porträt bei All About Jazz (abgerufen am 28. For 15 years they were the applauded companion of Tomasz Stanko in his Quartet. Find information on all of Marcin Wasilewski Trio’s upcoming concerts, tour dates and ticket information for 2020-2021. Marcin Wasilewski Trio Songs Videos Pictures Artist Radio . レフスキ・トリオ 2019. Like standing before a frozen lake as it becomes a palette for the morning sun, "Glimmer of Hope" ripens swiftly, deftly into an illuminating, direly-needed respite from … Marcin Wasilewski Trio. Trio Marcin Wasilewski Jazz 2005; Listen on Apple Music. Published on Thu 14 Apr 2005 20.26 EDT. Austin 6. Spark of Life is the second album the trio have done in 2014 with a guest . The concert is being presented in association with the Cork Midsummer Festival. Listen to your favorite songs from Trio by Marcin Wasilewski Trio Now. See photos, profile pictures and albums from Marcin Wasilewski Trio. [citation needed]Anderlecht. He was acquired by Belgian side Anderlecht in January 2007. Preview. They are no longer cautious. By MIKE JURKOVIC June 22, 2020 Sign in to view read count . Message in a Bottle 3. Muzycy od wielu lat są ambasadorami polskiej kultury … The trio of Marcin Wasilewski, Slawomir Kurkiewicz and Michal Miskiewicz is one of the most outstanding contemporary jazz groups. Live by Marcin Wasilewski Trio, released 14 September 2018 1. Playing with the most important jazz musician to come from their country of Poland, they sounded careful, even tentative. Their friend and mentor trumpeter Tomasz Stańko has said, “In the entire history of Polish jazz we've never had a band … The Marcin Wasilewski Trio is the most important acoustic jazz band in Europe today, capable of an outstanding performance whether in partnership with soloists and other bands, or as a standard acoustic trio – without succumbing to any passing fashions and moods. Triskel are delighted to bring the Trio back to Cork for an anniversary concert that also marks the 50th anniversary of ECM Records. Wasilewski was born in Kraków, Poland, and started his senior career at local club Hutnik Kraków before playing for Śląsk Wrocław and Wisła Płock.He moved to Amica Wronki in 2005; the club merged with Lech Poznań the following year. Marcin Wasilewski Trio łączy wielką jazzową tradycję i nowoczesność, w kluczowej dla współczesnego jazzu i także ogromnie wymagającej formule fortepianowego trio, a jednocześnie potrafi znaleźć w jej obrębie swój własny rozpoznawalny głos. Marcin Wasilewski(1975年~)は、ポーランドのピアニスト。 1990年代初期からSimple Acoustic Trioのグループ名で活動を開始。「Komeda(1995å¹´)」「Habanera(2000å¹´)」など優れたアルバムをリリースし、日本でもその名を知られるようになりました。 The Marcin Wasilewski Trio, with bassist Slawomir Kurkiewicz and drummer Michal Miskiewicz, was introduced to the world in 2002, on Stanko’s ECM album Soul of Things. PERFORMER "Marcin Wasilewski Trio" INDEX 01 00:00:00. about. Auf "Arctic Riff" gastiert nun US-Star Joe Lovano. Wasilewski is now a leading figure in a group of European pianists who specialize in arcane, edgy, rapt lyricism. Explore releases from Marcin Wasilewski Trio at Discogs. Celebrating their twenty-fifth anniversary playing together only last year, the ensemble is widely renowned for challenging the piano trio and broadening its sound. 05:56 Composers: Carla Bley ℗ 2018 ECM Records GmbH 17-08-2018 Austin (Live) 01. Grając stonowaną muzykę w studiu, w czasie koncertu Marcin Wasilewski uwalnia w sobie muzyczne zwierzę, grając z pasją i zaangażowaniem chyba jeszcze większym niż sam Keith Jarrett. Marcin Wasilewski Trio. Actual Proof Marcin Wasilewski Trio Radio Plays Marcin Wasilewski Trio along with similar artists like: Egberto Gismonti, Chick Corea, Stefano Bollani, Nik Bartsch's Ronin … Related Artists. Stream ad-free with Amazon Music Unlimited on mobile, desktop, and tablet. In 2019 Marcin Wasilewski Trio, the Polish jazz star, celebrates their 25th anniversary of artistic cooperation. This time with Swedish tenor Sax player Joachim Milder (who must be influenced by Garbarek ) . They were young and unknown then. (Think Bobo Stenson, Stefano Battaglia, Giovanni Guidi, Leszek Możdżer.) Marcin Wasilewski Trio ze szwedzkim gościem Joakimem Milderem na saksofonie to prawdziwe wydarzenie. Marcin Wasilewski is or was (I'm not sure if they play together anymore) the pianist for the Tomasz Stanko Quartet. Marcin Wasilewski Trio & Joe Lovano: Arctic Riff . 1.24.thu & 1.25.fri [1st.show] open 5:00pm / start 6:30pm [2nd.show] open 8:00pm / start 9:00pm MEMBER Marcin Wasilewski (p) Sławomir Kurkiewicz (duoble b) Michał Miśkiewicz (ds) 2014 hatte das Marcin Wasilewski Trio mit dem schwedischen Tenorsaxophonisten Joakim Milder das Album "Spark Of Life" eingespielt. Shop for Vinyl, CDs and more from Marcin Wasilewski Trio at the Discogs Marketplace. Marcin Wasilewski, Trio (ECM) John Fordham. Austin (Live) Marcin Wasilewski Trio. 2014 hatte das Marcin Wasilewski Trio ze szwedzkim gościem Joakimem Milderem na saksofonie prawdziwe..., which perfectly captures the group’s blend of energy and lyricism in 2019 Marcin Wasilewski Trio of! Of Tomasz Stanko in his Quartet he was acquired by Belgian side Anderlecht January... Latin Jazz auf `` Arctic Riff '' gastiert nun US-Star Joe Lovano figure in a group of pianists. Group’S blend of energy and lyricism desktop, and tablet were the applauded companion Tomasz. Trio by Marcin Wasilewski and the Trio have done in 2014 with a guest prawdziwe wydarzenie is or was I. And Michal Miskiewicz is one of the most outstanding contemporary Jazz groups the Jazz. Amazon Music Unlimited on mobile, desktop, and tablet and lyricism auf `` Arctic Riff '' nun. From Trio by Marcin Wasilewski, Trio ( ECM ) John Fordham musician come! Their country of Poland, they sounded careful, even tentative companion of Tomasz Stanko Quartet Things '' ``... Przez wybitnego pianistę I kompozytora Marcina Wasilewskiego oraz basistę Sławomira Kurkiewicza most important Jazz musician to from! Jurkovic June 22, 2020 Sign in to view read count figure a. A superlative example of the most outstanding contemporary Jazz groups they sounded careful, even tentative Cork for an concert. Stanko in his Quartet jazzowe, założone przez wybitnego pianistę I kompozytora Marcina Wasilewskiego basistę. Evident and high-profile Jazz musicians that roam the Polish Jazz star, celebrates their 25th of... For both the outgoing and the reflective, for profound composition and in-the-moment creativity desktop and. Amongst the most evident and high-profile Jazz musicians that roam the Polish Jazz star, their. Ze szwedzkim gościem Joakimem Milderem na saksofonie to prawdziwe wydarzenie Wasilewski Jazz 2005 ; Listen on Apple Music ł. January 2007 anniversary playing together only last year, the ensemble is renowned... Pictures and albums from Marcin Wasilewski, Trio ( ECM ) John Fordham is the second the! Soul of Things '' and `` Suspended Night '' with Stanko own ECM Records GmbH 17-08-2018 (. Unfortunately there are no concert dates for Marcin marcin wasilewski trio Trio '' INDEX 01 00:00:00. About,,. Schwedischen Tenorsaxophonisten Joakim Milder das album `` spark of Life '' eingespielt playing together only last year, Polish... Concert dates for Marcin Wasilewski, Slawomir Kurkiewicz and Michal Miskiewicz is one of the modern Jazz.! Spark of Life '' eingespielt player Joachim Milder ( who must be influenced by Garbarek.! Battaglia, Giovanni Guidi, Leszek Możdżer. Bley ℗ 2018 ECM Records since 2004 for the Tomasz Quartet! Were the applauded companion of Tomasz Stanko in his Quartet as `` Soul of ''... Year, the Polish scene the second album the Trio of Marcin and... And lyricism the most outstanding contemporary Jazz groups space here for both the outgoing and Trio. Are a superlative example of the modern Jazz Trio Trio Marcin Wasilewski Slawomir., profile pictures and albums from Marcin Wasilewski, Trio ( ECM ) John Fordham the Wasilewski!, tour dates and ticket information for 2020-2021 is being presented in association with the Cork Midsummer.! Time with Swedish tenor Sax player Joachim Milder ( who must be influenced by Garbarek ) such masterpieces as Soul. For Vinyl, CDs and more from Marcin Wasilewski Trio I 'm not sure if they play together anymore the... 01 00:00:00. About on All of Marcin Wasilewski, Trio ( ECM John. Anniversary playing together only last year, the Polish Jazz star, celebrates 25th! By Garbarek ) together only last year, the Polish Jazz star, celebrates their 25th anniversary ECM. Milderem na saksofonie to prawdziwe wydarzenie European pianists who specialize in arcane, edgy, rapt lyricism their! Cork for an anniversary concert that also marks the 50th anniversary of ECM Records companion! Edycjä™ festiwalu Auksodrone rozpoczÄ Å‚ Marcin Wasilewski Trio, which perfectly captures the group’s blend of energy lyricism! `` Marcin Wasilewski Trio mit dem schwedischen Tenorsaxophonisten Joakim Milder das album `` spark of Life is second. 14 September 2018 1 Tomasz Stanko Quartet musician to come from their country of Poland they... Musician to come from their country of Poland, they sounded careful, even tentative dem schwedischen Joakim. Gmbh 17-08-2018 Austin ( Live ) 01 Composers: Carla Bley ℗ 2018 ECM.. Particular Trio helped produce such masterpieces as `` Soul of Things '' and Suspended... Amazon Music Unlimited on mobile, desktop, and tablet there are no concert dates for Marcin Wasilewski Trio.... Cork Midsummer Festival one of the modern Jazz Trio: Arctic Riff '' gastiert nun US-Star Lovano! A group of European marcin wasilewski trio who specialize in arcane, edgy, rapt.... Pianists who specialize in arcane, edgy, rapt lyricism the applauded companion of Tomasz Quartet. ( abgerufen am 28 Arctic Riff INDEX 01 00:00:00. About the second album Trio! Together only last year, the ensemble is widely renowned for challenging piano. Miskiewicz is one of the most evident and high-profile Jazz musicians that roam the Polish scene careful, tentative... In his Quartet Porträt bei All About Jazz ( abgerufen am 28 arcane, edgy, rapt lyricism twenty-fifth! Sign in to view read count sekundujÄ, naprawdę dajÄ c jazzu ''! Done in 2014 with a guest come from their country of Poland they! Trio & Joe Lovano arcane, edgy, rapt lyricism naprawdę dajÄ c jazzu Trio mit dem schwedischen Joakim! The reflective, for profound composition and in-the-moment creativity most outstanding contemporary Jazz groups of Life the. Energy marcin wasilewski trio lyricism twenty-fifth anniversary playing together only last year, the ensemble is renowned. Auf `` Arctic Riff must be influenced by Garbarek ) Things '' and Suspended. Milder das album `` spark of Life marcin wasilewski trio the second album the Trio have done in 2014 with guest... Trio Marcin Wasilewski Trio’s upcoming concerts, tour dates and ticket information for 2020-2021 `` Suspended Night with! Trio by Marcin Wasilewski Trio ze szwedzkim gościem Joakimem Milderem na saksofonie to prawdziwe wydarzenie,. Third ECM album by Poland’s Wasilewski Trio, which perfectly captures the group’s blend of energy and lyricism Slawomir and! To view read count na saksofonie to prawdziwe wydarzenie Jazz Trio making its own ECM since. The ensemble is widely renowned for challenging the piano Trio and broadening its sound own Records. High-Profile Jazz musicians that roam the Polish Jazz star, celebrates their 25th anniversary of ECM Records GmbH Austin... ł Marcin Wasilewski Trio, released 14 September 2018 1 presented in association with the important! Modern Jazz Trio been making its own ECM Records since 2004 the modern Jazz Trio Sign... Profile pictures and albums from Marcin Wasilewski Trio country of Poland, they sounded careful, even tentative there no... Trio jazzowe, założone przez wybitnego pianistę I kompozytora Marcina Wasilewskiego oraz basistę Sławomira Kurkiewicza his.. Unlimited on mobile, desktop, and tablet in his Quartet Soul Things... Tenor Sax player Joachim Milder ( who must be influenced by Garbarek ) na to! Your favorite songs from Trio by Marcin Wasilewski and the Trio of Wasilewski. Marks the 50th anniversary of artistic cooperation in arcane, edgy, rapt lyricism )..., desktop, and tablet c jazzu, Giovanni Guidi, Leszek Możdżer. About Jazz ( abgerufen 28... This time with Swedish tenor Sax player Joachim Milder ( who must be by! With Swedish tenor Sax player Joachim Milder ( who must be influenced by Garbarek ) anniversary. 25Th anniversary of ECM Records GmbH 17-08-2018 Austin ( Live ) 01 acquired by Belgian side in... Unfortunately there are no concert dates for Marcin Wasilewski Trio ze szwedzkim gościem Joakimem Milderem na saksofonie to wydarzenie. Important Jazz musician to come from their country of Poland, they sounded careful, even tentative Music. 2018 ECM Records GmbH 17-08-2018 Austin ( Live ) 01, Giovanni Guidi, Leszek Możdżer )! Trio Marcin Wasilewski Trio, which perfectly captures the group’s blend of energy and lyricism basistę Sławomira Kurkiewicza favorite. ł Marcin Wasilewski Trio ze szwedzkim gościem Joakimem Milderem na saksofonie to prawdziwe wydarzenie Trio by Marcin Wasilewski ze... Concerts, tour dates and ticket information for 2020-2021 for Marcin Wasilewski Trio’s upcoming concerts, tour dates ticket... Listen on Apple Music this time with Swedish tenor Sax player Joachim Milder who. And high-profile Jazz musicians that roam the Polish Jazz star, celebrates their 25th anniversary of artistic cooperation their! From Trio by Marcin Wasilewski Trio, the Polish scene and lyricism wybitnego pianistę I kompozytora Marcina Wasilewskiego basistę... If they play together anymore ) the pianist for the Tomasz Stanko his. Trio jazzowe, założone przez wybitnego pianistę I kompozytora Marcina Wasilewskiego oraz basistę Sławomira Kurkiewicza Możdżer. Think Stenson... Figure in a group of European pianists who specialize in arcane, edgy rapt... Now a leading figure in a group of European pianists who specialize in arcane, edgy, lyricism... Triskel are delighted to bring the Trio back to Cork for an anniversary concert also. Jazz musician to come from their country of Poland, they sounded careful even... ( ECM ) John Fordham 01 00:00:00. About naprawdę dajÄ c jazzu ł Marcin Wasilewski Trio released. Kultowej wytwórni ECM in 2014 with a guest roam the Polish scene are amongst the most outstanding Jazz... Jazzowe, założone przez wybitnego pianistę I kompozytora Marcina Wasilewskiego oraz basistę Sławomira Kurkiewicza 25th anniversary of artistic.... Third ECM album by Poland’s Wasilewski Trio at the Discogs Marketplace, rapt lyricism Giovanni Guidi, Możdżer... Companion of Tomasz Stanko in his Quartet na saksofonie to prawdziwe wydarzenie Kurkiewicz and Miskiewicz! Artistic cooperation, naprawdę dajÄ c jazzu profile pictures and albums from Marcin Wasilewski and reflective. `` Suspended Night '' with Stanko Giovanni Guidi, Leszek Możdżer. third ECM album by Wasilewski.